<?xml version="1.0" standalone="no"?>
<!DOCTYPE svg PUBLIC "-//W3C//DTD SVG 1.1//EN" "http://www.w3.org/Graphics/SVG/1.1/DTD/svg11.dtd" >
<svg xmlns="http://www.w3.org/2000/svg">
<metadata></metadata>
<defs>
<font id="lithos_pro_regularregular" horiz-adv-x="1447" >
<font-face units-per-em="2048" ascent="1489" descent="-559" />
<missing-glyph horiz-adv-x="614" />
<glyph horiz-adv-x="2048" />
<glyph horiz-adv-x="2048" />
<glyph unicode="&#xd;" horiz-adv-x="681" />
<glyph unicode=" "  horiz-adv-x="614" />
<glyph unicode="&#x09;" horiz-adv-x="614" />
<glyph unicode="&#xa0;" horiz-adv-x="614" />
<glyph unicode="!" horiz-adv-x="614" d="M178 0v201h205v-201h-205zM217 1444l219 -10q-71 -600 -96 -975l-115 -17q-4 129 -3 525.5t-5 476.5z" />
<glyph unicode="&#x22;" horiz-adv-x="624" d="M78 1466h174l-43 -409h-90zM373 1466h174l-43 -409h-90z" />
<glyph unicode="#" horiz-adv-x="1038" d="M76 395v133h190l37 285h-176v133h197l51 385h133l-53 -385h209l53 385h133l-53 -385h168v-133h-187l-37 -285h174v-133h-196l-51 -395h-136l54 395h-207l-53 -395h-133l51 395h-168zM399 528h207l37 285h-207z" />
<glyph unicode="$" d="M377 999q0 164 250 316l-6 297h149l-6 -234q27 14 105.5 35t105.5 23l20 -164q-133 2 -277.5 -72t-144.5 -164q0 -68 52.5 -115t179.5 -108q63 -33 100 -55.5t80 -58t62.5 -81t19.5 -100.5q0 -113 -102.5 -221.5t-200.5 -151.5l6 -319h-149l6 272q-109 -41 -201 -51 l-29 158q205 16 339 99t134 167q0 68 -42 113t-156 108q-143 78 -219 146.5t-76 160.5z" />
<glyph unicode="%" horiz-adv-x="1931" d="M82 1030q0 150 116.5 277t309.5 127q174 0 276.5 -98.5t102.5 -286.5q0 -53 -22.5 -116t-67.5 -127.5t-130 -106.5t-194 -42q-186 0 -288.5 107.5t-102.5 265.5zM236 1036q0 -106 67.5 -185t173.5 -79q109 0 181.5 74t72.5 198q0 135 -66.5 205t-168.5 70 q-127 0 -193.5 -89t-66.5 -194zM469 43q31 45 101.5 157.5t181 294t186.5 304.5q365 582 416 678l129 -72q-242 -362 -445 -692q-206 -338 -444 -756zM1044 373q0 150 117 276.5t309 126.5q174 0 276.5 -98t102.5 -287q0 -53 -22.5 -115.5t-67.5 -127t-129.5 -106.5 t-193.5 -42q-186 0 -289 107.5t-103 265.5zM1198 371q0 -106 68 -185.5t174 -79.5q109 0 181.5 74t72.5 197q0 135 -66.5 205.5t-169.5 70.5q-127 0 -193.5 -89t-66.5 -193z" />
<glyph unicode="&#x26;" horiz-adv-x="1259" d="M37 301q0 211 274 447q-123 129 -123 239q0 158 168 295t389 188l46 -155q-78 -12 -166 -45t-169 -100.5t-81 -147.5q0 -57 42 -121.5t76.5 -99.5t127.5 -119q133 -121 340 -281q35 43 169 238l132 -96q-127 -166 -191 -230q41 -31 92 -70.5t86.5 -65.5t53.5 -42 l-111 -135q-229 180 -242 190q-229 -223 -524 -223q-160 0 -274.5 94.5t-114.5 239.5zM221 330q0 -86 65.5 -147.5t176.5 -61.5q207 0 381 164q-291 223 -432 364q-190 -145 -191 -319z" />
<glyph unicode="'" horiz-adv-x="327" d="M74 1466h180l-47 -405h-86z" />
<glyph unicode="(" horiz-adv-x="614" d="M78 676q0 168 44 325.5t113.5 271t138 192.5t134.5 124l98 -123q-43 -23 -99 -81t-118.5 -150t-103.5 -235.5t-41 -303.5q0 -254 117.5 -459.5t244.5 -269.5l-98 -131q-66 43 -134.5 115t-138 176t-113.5 248.5t-44 300.5z" />
<glyph unicode=")" horiz-adv-x="614" d="M8 -41q43 23 99.5 81t119 150.5t103.5 235.5t41 303q0 254 -118 460t-245 269l98 131q66 -43 134.5 -114.5t138.5 -176t114 -249t44 -299.5q0 -168 -44 -326t-114 -271.5t-138.5 -192.5t-134.5 -124z" />
<glyph unicode="*" horiz-adv-x="716" d="M66 1116l10 133q16 -6 139 -38.5t131 -34.5q-4 -14 -40 -134t-42 -149l-123 55q8 12 39 57.5t58.5 85t29.5 44.5q-6 0 -96 -8.5t-106 -10.5zM141 1393l113 86q98 -197 104 -203q6 8 42 90t46 113l117 -78q-12 -12 -106.5 -109.5t-100.5 -105.5q-33 35 -115 114t-100 93z M367 1176q25 4 82 19t117.5 31.5t76.5 20.5l6 -125q-195 14 -203 11q4 -6 62.5 -86t66.5 -91l-126 -63q-4 14 -25 84t-38 130t-19 69z" />
<glyph unicode="+" horiz-adv-x="1220" d="M82 479v135h457v476h143v-476h457v-135h-457v-479h-143v479h-457z" />
<glyph unicode="," horiz-adv-x="552" d="M111 -207l133 465l200 -90l-251 -414z" />
<glyph unicode="-" horiz-adv-x="716" d="M49 778q90 -2 339 -4t274 0l6 -129q-23 4 -281 -5t-328 -15z" />
<glyph unicode="." horiz-adv-x="552" d="M162 0v227h229v-227h-229z" />
<glyph unicode="/" horiz-adv-x="694" d="M-160 47q31 41 98.5 148.5t177 283.5t185.5 293q379 598 410 653l137 -75q-152 -209 -436 -662q-145 -229 -439 -729z" />
<glyph unicode="0" d="M74 715q0 301 197.5 493.5t467.5 192.5q276 0 455.5 -187.5t179.5 -482.5q0 -281 -188.5 -488.5t-485.5 -207.5q-119 0 -229.5 43t-199.5 125t-143 215t-54 297zM254 705q0 -199 127 -354.5t348 -155.5q80 0 160 33.5t149.5 98t112.5 172t43 240.5q0 203 -138 352.5 t-335 149.5q-201 0 -334 -151.5t-133 -384.5z" />
<glyph unicode="1" d="M319 946q53 49 285 267.5t270 261.5h7q0 -8 -8.5 -230.5t-8.5 -386.5v-315q0 -500 4 -543h-192q0 16 3 107.5t6 225.5t3 255v530q-27 -31 -81 -86t-115.5 -115.5t-79.5 -80.5z" />
<glyph unicode="2" d="M143 20q725 492 725 854q0 102 -54 185.5t-141 132.5t-182.5 76.5t-191.5 31.5l37 168q338 -41 534.5 -202.5t196.5 -372.5q0 -68 -22.5 -139.5t-49 -126t-83 -124t-88 -105.5t-105.5 -100.5t-93.5 -80.5t-88.5 -72l2 -8l610 23v-176q-98 12 -770 16h-232z" />
<glyph unicode="3" d="M289 115q123 -8 252 24.5t226 114.5t97 195q0 86 -78.5 147t-171 85t-182.5 28v61q141 14 273.5 96t132.5 193q0 119 -139.5 189.5t-313.5 72.5l25 158q129 -6 266 -49.5t244.5 -134.5t107.5 -203q0 -100 -82 -195.5t-172 -134.5v-4q131 -35 215 -110t84 -189 q0 -135 -114.5 -252t-292 -184.5t-365.5 -73.5z" />
<glyph unicode="4" d="M119 350l891 1147h12v-1020l223 6l-14 -153l-211 6v-96q0 -121 4 -240h-182q0 16 3 63.5t5 97.5t2 101v72h-729zM399 479h457v608h-4q-39 -59 -235.5 -319t-217.5 -289z" />
<glyph unicode="5" d="M297 115q90 16 184 55t183.5 97.5t146.5 143.5t57 179q0 133 -139 218t-385 107l84 515q596 20 657 24l-2 -178l-530 4l-39 -221q549 -92 549 -436q0 -145 -113.5 -291t-277.5 -244t-330 -133z" />
<glyph unicode="6" d="M272 442q0 285 187 583t418 462l106 -141q-96 -55 -218 -181.5t-190 -267.5q256 10 429.5 -114t173.5 -316q0 -213 -150.5 -356.5t-341.5 -143.5q-178 0 -289 113q-125 131 -125 362zM457 455q0 -154 67.5 -246t175.5 -92q125 0 205 91t80 218q0 164 -141.5 253 t-331.5 77q-55 -129 -55 -301z" />
<glyph unicode="7" d="M252 1452q455 -18 936 -18l4 -7q-31 -51 -569 -1460l-181 88q27 41 252.5 571.5t272.5 649.5l-707 4z" />
<glyph unicode="8" d="M262 358q0 113 67.5 217.5t172.5 161.5q-100 41 -161.5 131t-61.5 199q0 152 126.5 276.5t337.5 122.5q186 0 304 -100t118 -264q0 -98 -59 -196.5t-174 -149.5q121 -51 187.5 -146.5t66.5 -222.5q0 -68 -28 -138.5t-83 -135t-150.5 -105.5t-215.5 -41q-219 0 -333 110.5 t-114 280.5zM453 365q0 -106 73.5 -185.5t192.5 -79.5q121 0 196.5 76t75.5 199q0 133 -77.5 214t-196.5 81q-123 0 -193.5 -88t-70.5 -217zM467 1069q0 -104 69.5 -183t178.5 -79q113 0 187.5 73.5t74.5 194.5q0 123 -73 190.5t-179 67.5q-129 0 -193.5 -78.5t-64.5 -185.5 z" />
<glyph unicode="9" d="M272 975q0 203 144.5 347t333.5 144q193 0 309.5 -130t116.5 -335q0 -301 -181.5 -595.5t-412.5 -458.5l-107 141q94 57 213 184t191 281q-260 -12 -433.5 108.5t-173.5 313.5zM463 1014q0 -170 139 -256t334 -68q47 117 47 283q0 168 -66.5 257t-179.5 89 q-119 0 -196.5 -91t-77.5 -214z" />
<glyph unicode=":" horiz-adv-x="552" d="M166 82v219h221v-219h-221zM166 795v219h221v-219h-221z" />
<glyph unicode=";" horiz-adv-x="552" d="M115 -123l94 442l188 -83l-207 -390zM166 795v219h221v-219h-221z" />
<glyph unicode="&#x3c;" horiz-adv-x="1220" d="M133 483v123l957 484v-156l-791 -387v-4l791 -387v-156z" />
<glyph unicode="=" horiz-adv-x="1220" d="M82 281v135h1057v-135h-1057zM82 686v135h1057v-135h-1057z" />
<glyph unicode="&#x3e;" horiz-adv-x="1220" d="M131 0v156l799 387v4l-799 387v156l959 -480v-131z" />
<glyph unicode="?" horiz-adv-x="880" d="M68 1317l47 158q272 -51 464.5 -174t192.5 -291q0 -86 -38 -166t-92 -138.5t-128 -110.5t-128 -82t-110 -54l-59 131q129 43 242.5 142t113.5 233q0 84 -47 150.5t-124.5 106.5t-160.5 62.5t-173 32.5zM219 0v201h205v-201h-205z" />
<glyph unicode="@" horiz-adv-x="1619" d="M115 629q0 303 207.5 521t506.5 218q293 0 484.5 -189.5t191.5 -478.5q0 -172 -73 -280q-31 -47 -82.5 -74t-102.5 -27q-121 0 -194 111q-14 20 -72 125l-330 -8q-20 -37 -94 -197l-123 70q29 49 191.5 347t175.5 318h30q41 -70 164 -290t150 -263q57 -96 112 -96 q109 0 109 252q0 236 -156.5 401.5t-382.5 165.5q-248 0 -406.5 -179t-158.5 -437q0 -244 155.5 -403.5t387.5 -159.5q182 0 352 102l53 -115q-182 -100 -407 -100q-299 0 -493.5 187.5t-194.5 478.5zM694 653l238 4q-8 16 -61.5 119t-57.5 111q-8 -14 -60.5 -119 t-58.5 -115z" />
<glyph unicode="A" horiz-adv-x="1638" d="M41 68q59 102 394 751t358 686h4q88 -141 410.5 -730t394.5 -697l-175 -115q-274 522 -280 531l-711 -29q-14 -23 -113.5 -249t-113.5 -255zM506 600l579 25q-20 41 -150 286.5t-144 268.5q-18 -27 -149.5 -300.5t-135.5 -279.5z" />
<glyph unicode="B" horiz-adv-x="1310" d="M297 -12q10 113 10 770v227q0 377 -10 449q186 0 283 -13q471 -39 471 -309q0 -78 -56.5 -165t-201.5 -154v-5q121 -18 221 -105t100 -214q0 -193 -223 -336t-578 -145h-16zM483 135q180 18 303 101t123 221q0 109 -118 174q-105 58 -267 58q-20 0 -41 -1v-553zM483 805 q164 4 269.5 89t105.5 191q0 208 -375 218v-498z" />
<glyph unicode="C" horiz-adv-x="1351" d="M123 573q0 131 61.5 264.5t181 258.5t324.5 224t465 146l31 -172q-233 -27 -428 -122t-311.5 -243.5t-116.5 -320.5q0 -207 171 -346t515 -139q114 0 237 29l21 -164q-102 -20 -279 -21q-199 0 -357.5 45t-251.5 113t-155.5 154t-85 158.5t-22.5 135.5z" />
<glyph unicode="D" horiz-adv-x="1691" d="M295 -10q12 141 12 657v254q0 461 -10 533q360 0 522 -21q190 -25 333.5 -74t220.5 -104t123 -124t59.5 -120t13.5 -102q0 -154 -61.5 -287t-166 -229.5t-234.5 -171t-274.5 -119.5t-280.5 -68.5t-257 -23.5zM492 170q397 35 636.5 234.5t239.5 431.5q0 228 -232 338 q-224 107 -615 106h-29v-1110z" />
<glyph unicode="E" horiz-adv-x="1175" d="M301 0q6 109 6 594v274q0 449 -6 566q39 0 320.5 16t328.5 23l8 -162q-37 0 -245.5 -5.5t-220.5 -5.5v-520q215 0 399 23l6 -162q-23 0 -204 4t-201 4v-499q407 0 491 6l8 -176q-16 0 -341.5 10t-348.5 10z" />
<glyph unicode="F" horiz-adv-x="1097" d="M291 0q16 109 16 596v272q0 487 -8 566q45 0 317.5 12t329.5 18l8 -157l-462 -11v-522q135 0 423 19l7 -158l-430 8v-194q0 -429 6 -449h-207z" />
<glyph unicode="G" horiz-adv-x="1515" d="M123 565q0 76 29.5 164t105.5 195.5t186.5 205t290.5 190.5t402 153l41 -179q-354 -68 -603 -278.5t-249 -452.5q0 -176 158.5 -313t443.5 -137q127 0 219 30v342q0 104 -6 142h192q-2 -49 -2 -158v-150q0 -45 3 -162.5t3 -123.5q-174 -66 -452 -66q-342 0 -552 170 t-210 428z" />
<glyph unicode="H" horiz-adv-x="1896" d="M297 1434h205q-10 -92 -10 -492v-160l913 39v164q0 358 -8 449h209q-4 -33 -10.5 -312.5t-6.5 -339.5v-204q0 -500 8 -578h-204q12 139 12 473v213l-913 -39v-131q0 -328 8 -516h-199q6 135 6 623v221q0 467 -10 590z" />
<glyph unicode="I" horiz-adv-x="798" d="M297 1434h205q-10 -92 -10 -594v-222q0 -430 8 -618h-199q6 135 6 623v221q0 467 -10 590z" />
<glyph unicode="J" horiz-adv-x="831" d="M68 16q156 72 235.5 213.5t79.5 397.5v319q0 365 -10 488h205q-11 -93 -11 -492v-319q0 -571 -405 -754z" />
<glyph unicode="K" horiz-adv-x="1478" d="M297 -20q10 147 10 638v218q0 106 -5 358t-5 260h205q-10 -164 -10 -598v-221q0 -557 10 -655h-205zM506 754q39 37 338 332.5t330 330.5l118 -135q-14 -14 -253.5 -232.5t-303.5 -281.5q74 -90 631 -633l-135 -143q-8 12 -170 180t-340 354.5t-215 227.5z" />
<glyph unicode="L" horiz-adv-x="1091" d="M291 0q16 109 16 596v272q0 488 -8 566h209q-16 -90 -16 -707v-580q291 0 487 9v-176q-12 0 -336 10t-352 10z" />
<glyph unicode="M" horiz-adv-x="2238" d="M86 10q27 59 253 737t234 719h5q68 -135 268.5 -528t240.5 -461q41 66 283 485.5t254 440.5h4q37 -88 260 -683t266 -697l-176 -76q-39 117 -205.5 573.5t-191.5 513.5q-37 -57 -258 -440t-262 -449h-4q-100 186 -249 481.5t-206 424.5q-184 -572 -348 -1104z" />
<glyph unicode="N" horiz-adv-x="1873" d="M240 0q8 121 75 1516h4q39 -45 547 -573.5t568 -588.5q0 47 6 545t8 545l190 -10q-10 -139 -30 -639t-25 -838h-4q-88 88 -596 612.5t-532 556.5h-5q0 -18 -8 -560q-6 -433 -6 -544v-36z" />
<glyph unicode="O" horiz-adv-x="1740" d="M123 643q0 348 226 585.5t589 237.5q299 0 489.5 -187t190.5 -511q0 -100 -25.5 -205.5t-87 -214t-150.5 -191.5t-226.5 -136.5t-305.5 -53.5q-322 0 -511 196.5t-189 479.5zM319 674q0 -236 143.5 -395.5t379.5 -159.5q242 0 409.5 174t167.5 465q0 262 -148.5 409.5 t-361.5 147.5q-268 0 -429 -184.5t-161 -456.5z" />
<glyph unicode="P" horiz-adv-x="1257" d="M299 0q10 221 10 727v225q0 27 -3 248t-3 234q219 0 385 -27q211 -35 329 -134t118 -259q0 -209 -177.5 -368t-470.5 -218v-121q1 -264 5 -307h-193zM487 571q205 45 327 147.5t122 264.5q0 27 -6 55.5t-33 73.5t-72 80t-133 61.5t-205 28.5v-711z" />
<glyph unicode="Q" horiz-adv-x="1738" d="M123 662q0 336 230.5 570t574.5 234q303 0 495.5 -182t192.5 -491q0 -104 -26.5 -208t-81 -205t-154 -187.5t-232.5 -139.5v-8q76 -8 264.5 -28.5t268.5 -26.5l-37 -178q-121 25 -360.5 73.5t-346.5 69.5q-70 14 -110 14q-47 0 -111.5 9.5t-180.5 55.5t-194 126 q-193 193 -192 502zM317 680q0 -240 145.5 -403.5t373.5 -163.5q252 0 417.5 187t165.5 474q0 256 -153.5 400.5t-350.5 144.5q-158 0 -279.5 -62.5t-188 -162t-98.5 -205t-32 -209.5z" />
<glyph unicode="R" horiz-adv-x="1417" d="M297 1434q250 0 426 -21q203 -25 313.5 -107.5t110.5 -213.5q0 -236 -285 -416q41 -55 238.5 -300t238.5 -288l-155 -125q-29 37 -267.5 350.5t-277.5 368.5q307 166 307 381q0 31 -9 59.5t-40 61.5t-78 56.5t-131.5 38.5t-195.5 17v-669q0 -549 10 -627h-199q4 25 4 741 v168q0 459 -10 525z" />
<glyph unicode="S" horiz-adv-x="1079" d="M195 987q0 156 179 294t404 189l43 -157q-55 -8 -120.5 -30.5t-138.5 -57.5t-121 -89.5t-48 -113.5q0 -31 12.5 -57.5t47 -54t50 -40t68 -41t54.5 -30.5q160 -94 206 -142q74 -76 74 -182q0 -158 -160.5 -302t-445.5 -210l-53 154q180 37 318 116.5t138 192.5 q0 74 -47 123t-166 113q-150 80 -222 152.5t-72 172.5z" />
<glyph unicode="T" horiz-adv-x="1331" d="M-6 1264v174q51 -10 284.5 -17.5t305.5 -7.5h178q78 0 298 7t277 18v-174q-20 6 -231 12t-348 6v-338q0 -188 5 -414.5t11 -365.5t8 -164h-221q12 63 12 977v305q-459 0 -579 -18z" />
<glyph unicode="U" horiz-adv-x="1705" d="M225 1022v111q0 53 1 162.5t1 127.5h195q-10 -133 -10 -336v-139q0 -260 18.5 -391t75.5 -233q115 -199 354 -199q233 0 357 194q47 72 69.5 194t26.5 226.5t4 304.5v72q0 111 -12 338h194q0 -8 1 -127t1 -215v-94q0 -328 -33.5 -514.5t-142.5 -319.5 q-178 -217 -491 -217q-324 0 -478 244q-76 119 -103.5 283.5t-27.5 527.5z" />
<glyph unicode="V" horiz-adv-x="1505" d="M31 1368l176 98q25 -70 272.5 -590t278.5 -567q25 37 295 571.5t288 585.5l168 -98q-94 -139 -770 -1436h-4q-20 29 -346 708t-358 728z" />
<glyph unicode="W" horiz-adv-x="2191" d="M88 1378l178 76q39 -135 202 -624.5t173 -522.5q23 51 103.5 198.5t204.5 371t163 294.5h4q78 -139 473 -821q18 55 207 547t205 537l172 -72q-4 -8 -91 -218t-184.5 -441.5t-188.5 -447.5t-110 -257h-4q-41 78 -254 440.5t-235 407.5q-18 -33 -508 -918h-4 q-37 92 -256 728t-250 722z" />
<glyph unicode="X" horiz-adv-x="1550" d="M113 98q33 31 255 289t298 348q-41 47 -242 282.5t-242 282.5l150 138q152 -209 456 -578q55 61 253 295t239 287l139 -139q-63 -61 -279 -289t-249 -275q63 -72 283.5 -321.5t269.5 -311.5l-148 -139q-33 47 -260 325.5t-268 323.5q-518 -647 -522 -653z" />
<glyph unicode="Y" horiz-adv-x="1400" d="M47 1307l84 159q90 -47 182.5 -117.5t137.5 -121.5q215 -248 266 -441h4q78 221 248 414q70 78 185.5 157t207.5 109l61 -159q-217 -66 -391 -267q-109 -123 -172 -280.5t-63 -315.5v-192q0 -150 10 -252h-205q10 236 10 291v153q0 344 -264 635q-141 160 -301 228z" />
<glyph unicode="Z" horiz-adv-x="1409" d="M92 0v4q41 41 257 342t444 627l227 325q-43 0 -424 9.5t-408 9.5l9 156q88 -8 585.5 -29t550.5 -21v-4q-27 -29 -128 -168t-230 -322.5t-251 -356.5t-212 -304t-92 -133q750 0 850 15l-8 -170q-18 0 -564 10t-606 10z" />
<glyph unicode="[" horiz-adv-x="716" d="M217 -160q8 272 8 819v168q0 492 -8 738l455 45l10 -144l-285 -10q-8 -223 -8 -506v-262q0 -403 8 -725l275 4l10 -143z" />
<glyph unicode="\" horiz-adv-x="694" d="M-154 1350l138 75q31 -55 409 -653q76 -117 185.5 -293t177 -283.5t98.5 -148.5l-133 -88q-293 500 -438 729q-285 453 -437 662z" />
<glyph unicode="]" horiz-adv-x="716" d="M35 -33l284 10q8 223 9 506v262q0 403 -9 725l-274 -4l-10 144l465 -17q-8 -272 -8 -819v-168q0 -491 8 -737l-455 -45z" />
<glyph unicode="^" horiz-adv-x="1220" d="M117 383l424 948h139l424 -948h-158l-334 782h-6l-334 -782h-155z" />
<glyph unicode="_" horiz-adv-x="1024" d="M0 -154h1024v-102h-1024v102z" />
<glyph unicode="`" horiz-adv-x="1740" d="M625 1708l96 145l278 -241l-49 -72z" />
<glyph unicode="a" horiz-adv-x="1454" d="M29 53q47 84 349 638t322 589h5q78 -121 368.5 -621.5t351.5 -592.5l-165 -101q-23 43 -124.5 227.5t-119.5 213.5l-633 -25q-60 -133 -197 -418zM453 510l499 20q-20 39 -130.5 241t-123.5 220q-16 -25 -128.5 -250t-116.5 -231z" />
<glyph unicode="b" horiz-adv-x="1187" d="M260 -10q10 96 10 655v193q0 319 -10 381q221 0 295 -7q434 -33 434 -266q0 -68 -57.5 -146.5t-190.5 -129.5v-4q117 -16 211.5 -87t94.5 -180q0 -180 -202 -294.5t-548 -114.5h-37zM442 123q174 12 294 77.5t120 188.5q0 99 -117 149q-101 44 -249 43q-23 0 -48 -1v-457 zM442 690q150 2 258.5 73t108.5 161q0 55 -37 93t-98.5 54t-117 21.5t-114.5 5.5v-408z" />
<glyph unicode="c" horiz-adv-x="1202" d="M115 487q0 244 234.5 463t680.5 299l29 -155q-315 -39 -534.5 -198t-219.5 -380q0 -170 153.5 -283.5t465.5 -113.5q110 0 196 20l19 -153q-82 -14 -234 -15q-180 0 -324.5 38t-229.5 95.5t-140 130t-75.5 135t-20.5 117.5z" />
<glyph unicode="d" horiz-adv-x="1478" d="M258 -8q12 119 12 559v215q0 391 -10 453q324 0 459 -11q172 -14 301 -55t195.5 -90t106.5 -112.5t49 -107.5t9 -91q0 -160 -70.5 -292t-183 -217t-262 -143.5t-301 -83t-305.5 -24.5zM446 143q180 12 326 66.5t236 134.5t137 174t47 193q-1 370 -701 370h-45v-938z" />
<glyph unicode="e" horiz-adv-x="1081" d="M264 0q6 92 6 506v231q0 383 -6 482q131 0 623 32l8 -147q-47 0 -241.5 -4t-204.5 -4v-426q182 0 385 18l6 -149q-33 0 -205 4q-49 0 -116.5 1t-69.5 1v-414q365 0 469 6l6 -155q-35 0 -340 9t-320 9z" />
<glyph unicode="f" horiz-adv-x="1013" d="M254 0q16 92 16 506v231q0 416 -8 482q41 0 294 10t327 16l8 -147l-442 -8v-426q119 0 407 16l6 -145l-413 6v-160q0 -363 6 -381h-201z" />
<glyph unicode="g" horiz-adv-x="1347" d="M113 481q0 66 26.5 141.5t94 167t167 173t258 159.5t355.5 129l37 -159q-309 -57 -528.5 -233.5t-219.5 -379.5q0 -154 131 -264.5t389 -110.5q129 0 193 25v283q0 90 -6 120h182v-133v-127q0 -39 2 -139t2 -106q-152 -55 -412 -56q-309 0 -490 143.5t-181 366.5z" />
<glyph unicode="h" horiz-adv-x="1685" d="M260 1219h199q-10 -76 -10 -418v-127l788 33v131q0 264 -6 381h199q-2 -27 -8.5 -269.5t-6.5 -283.5v-174q0 -426 8 -492h-196q10 98 10 401v177l-788 -33v-107q0 -274 8 -438h-193q6 115 6 528v189q0 399 -10 502z" />
<glyph unicode="i" horiz-adv-x="720" d="M260 1219h199q-10 -76 -10 -504v-189q0 -362 8 -526h-193q6 115 6 528v189q0 399 -10 502z" />
<glyph unicode="j" horiz-adv-x="747" d="M51 14q141 59 214 180t73 338v273q0 250 -8 414h196q-10 -76 -10 -418v-273q0 -262 -106.5 -422.5t-268.5 -228.5z" />
<glyph unicode="k" horiz-adv-x="1347" d="M260 -18q10 129 10 544v185q0 90 -5 305t-5 221h197q-10 -143 -11 -510v-186q1 -471 11 -559h-197zM461 641q557 520 606 571l109 -133q-59 -45 -245 -202.5t-257 -223.5q84 -98 569 -530l-127 -139q-6 6 -307 306t-348 351z" />
<glyph unicode="l" horiz-adv-x="1007" d="M254 0q16 92 16 506v231q0 416 -8 482h203q-16 -78 -16 -601v-481q266 0 464 8v-163q-31 0 -334 9t-325 9z" />
<glyph unicode="m" horiz-adv-x="1925" d="M61 8q23 53 217.5 628.5t202.5 610.5h8q39 -80 220.5 -423t226.5 -423q25 41 241 402.5t234 390.5h6q6 -14 207 -539.5t246 -636.5l-170 -63q-92 279 -322 911q-10 -14 -212.5 -347t-250.5 -408h-4q-270 504 -403 759q-10 -33 -79 -258t-130.5 -425.5t-69.5 -231.5z" />
<glyph unicode="n" horiz-adv-x="1644" d="M207 0q27 340 69 1288h11q37 -41 477 -484.5t487 -488.5q0 739 6 912l183 -8q-8 -104 -26.5 -533.5t-24.5 -722.5h-9q-35 31 -492.5 486.5t-479.5 480.5h-5q1 -5 1 -46q0 -102 -4 -422q-5 -450 -5 -474z" />
<glyph unicode="o" horiz-adv-x="1585" d="M113 547q0 297 202.5 498.5t532.5 201.5q276 0 450.5 -159.5t174.5 -434.5q0 -86 -24 -176t-79 -181t-137 -163t-209 -117t-281 -45q-293 0 -461.5 167t-168.5 409zM301 573q0 -201 125 -334t334 -133q221 0 371.5 145.5t150.5 393.5q0 223 -133 345t-328 122 q-238 0 -379 -154.5t-141 -384.5z" />
<glyph unicode="p" horiz-adv-x="1146" d="M262 0q8 152 8 618v191q0 23 -2 210t-2 200q240 0 369 -21q193 -31 298 -116t105 -220q0 -184 -162.5 -319t-429.5 -183v-98q1 -225 3 -262h-187zM446 496q182 35 293 119.5t111 226.5q0 33 -13.5 65.5t-50 74.5t-125 69.5t-215.5 29.5v-585z" />
<glyph unicode="q" horiz-adv-x="1583" d="M113 563q0 285 207.5 484.5t523.5 199.5q276 0 451 -155.5t175 -417.5q0 -193 -108.5 -370t-329.5 -257v-6q354 -35 473 -43l-32 -166q-430 76 -644 125q-72 16 -92 16q-41 0 -102.5 8.5t-167 49.5t-176.5 108q-178 172 -178 424zM301 578q0 -203 127 -336t332 -133 q227 0 374.5 153.5t147.5 394.5q0 217 -136 336t-312 119q-143 0 -252 -51t-167.5 -135t-86 -171t-27.5 -177z" />
<glyph unicode="r" horiz-adv-x="1261" d="M260 1219q285 0 406 -15q184 -23 286.5 -95.5t102.5 -184.5q0 -201 -264 -357q33 -45 210 -238.5t220 -236.5l-142 -125q-37 45 -250 306.5t-247 308.5q53 27 85.5 47t85 61t80 93.5t27.5 114.5q0 185 -411 187v-553q0 -467 10 -532h-193q4 27 4 631v141q0 391 -10 447z " />
<glyph unicode="s" horiz-adv-x="983" d="M168 840q0 139 169 256.5t380 154.5l39 -143q-55 -8 -114.5 -24.5t-128.5 -44t-113 -72.5t-44 -99q0 -27 13.5 -50t40 -43.5t49 -34t59.5 -32t51 -26.5q154 -84 193 -121q72 -66 72 -158q0 -139 -153 -261t-419 -175l-47 144q428 84 428 251q0 63 -44 104.5t-155 94.5 q-139 68 -207.5 129.5t-68.5 149.5z" />
<glyph unicode="t" horiz-adv-x="1157" d="M-10 1057v166q33 -8 238.5 -14.5t275.5 -6.5h164q416 0 499 21v-166q-2 6 -185 11t-312 5v-270q0 -162 5 -353.5t10 -310.5t7 -139h-213q12 53 13 829v244q-449 0 -502 -16z" />
<glyph unicode="u" horiz-adv-x="1515" d="M190 868v95q0 45 1.5 138t1.5 109h184q-8 -180 -8 -286v-117q0 -217 17 -329.5t69 -196.5q102 -168 309 -168q203 0 313 166q41 59 61.5 160.5t23.5 190.5t3 259v59q0 53 -2 108.5t-5 108t-3 72.5h186q0 -8 1 -108.5t1 -182.5v-82q0 -272 -32.5 -432t-130.5 -274 q-162 -186 -441 -187q-285 0 -426 209q-68 102 -95.5 243.5t-27.5 444.5z" />
<glyph unicode="v" horiz-adv-x="1341" d="M18 1163l170 86q20 -59 235.5 -500.5t244.5 -482.5q23 31 259.5 485.5t252.5 497.5l163 -86q-39 -59 -329.5 -575t-360.5 -645h-4q-14 25 -309 601t-322 619z" />
<glyph unicode="w" horiz-adv-x="1935" d="M61 1171l177 70q27 -88 98.5 -302t146 -432t78.5 -231q25 47 188.5 332t229.5 402h4q59 -100 218 -357.5t206 -339.5q8 25 170 441t180 473l172 -70q-14 -39 -245.5 -564t-266.5 -595h-8q-39 68 -227.5 369t-208.5 338q-215 -383 -447 -766h-8q-96 233 -457 1232z" />
<glyph unicode="x" horiz-adv-x="1349" d="M72 84q33 25 229.5 241t269.5 300q-33 37 -213 234.5t-219 240.5l135 129q174 -223 408 -494q158 170 438 492l125 -123q-78 -76 -259 -257t-210 -218q324 -360 498 -539l-141 -125q-16 18 -229.5 272.5t-239.5 282.5q-16 -23 -227 -277.5t-236 -279.5z" />
<glyph unicode="y" horiz-adv-x="1198" d="M25 1087l75 150q72 -35 152 -93.5t117 -99.5q195 -209 243 -374h2q72 190 226 352q61 63 162.5 130t173.5 89l53 -149q-180 -57 -330 -218q-211 -225 -211 -503v-156q0 -129 10 -215h-196q0 23 4 131.5t4 116.5v123q0 295 -234 536q-127 131 -251 180z" />
<glyph unicode="z" horiz-adv-x="1230" d="M61 0v4q55 57 820 1090q-41 0 -376 4t-347 4l8 149q68 -6 513 -23.5t484 -17.5v-4q-43 -57 -411.5 -553.5t-393.5 -529.5q672 0 758 12l-6 -153q-12 0 -505.5 9t-543.5 9z" />
<glyph unicode="{" horiz-adv-x="716" d="M61 664v116q111 0 159 46t52 204q8 254 75 374.5t212 194.5l86 -122q-113 -51 -156 -155.5t-47 -297.5q-2 -90 -50 -174t-120 -117q168 -76 168 -332q0 -369 205 -454l-86 -123q-143 61 -211.5 187t-77.5 390q-2 88 -16 141.5t-44 80t-61.5 34t-87.5 7.5z" />
<glyph unicode="|" horiz-adv-x="505" d="M178 -512v2048h152v-2048h-152z" />
<glyph unicode="}" horiz-adv-x="716" d="M72 -53q111 51 152.5 154.5t47.5 297.5q2 100 51.5 185.5t120.5 120.5q-168 82 -168 317q0 369 -204 455l82 122q145 -61 214.5 -185t77.5 -382q2 -88 16.5 -141t44.5 -80t61.5 -34t86.5 -7v-117q-111 0 -158.5 -46t-52.5 -204q-4 -180 -40.5 -294.5t-94 -175 t-155.5 -109.5z" />
<glyph unicode="~" horiz-adv-x="1220" d="M98 424q-4 156 65.5 238.5t186.5 82.5q61 0 118.5 -19t170.5 -73q176 -86 244 -86q102 0 106 170h135q6 -168 -62.5 -245.5t-178.5 -77.5q-104 0 -295 92q-8 4 -34 17.5t-35 17.5t-30.5 14t-30.5 14t-26.5 11.5t-29 9.5t-26 4t-26.5 2q-111 0 -117 -172h-135z" />
<glyph unicode="&#xa1;" horiz-adv-x="614" d="M178 0q71 600 96 975l115 16q4 -129 3 -525t5 -476zM231 1233v201h205v-201h-205z" />
<glyph unicode="&#xa2;" d="M377 682q0 152 92 283t244 213l-4 364h149l-6 -299q76 35 229 66l23 -168q-258 -27 -396.5 -151t-138.5 -281q0 -137 121 -216t289 -79q66 0 156 16l14 -156q-74 -14 -168 -14q-59 0 -129 8l6 -301h-149l4 334q-117 27 -198 104.5t-109.5 149.5t-28.5 127z" />
<glyph unicode="&#xa3;" d="M244 707q119 4 235 12q12 82 21 121q53 276 213.5 423.5t408.5 202.5l37 -170q-100 -14 -164.5 -34.5t-132 -69.5t-112.5 -144.5t-74 -240.5q-4 -12 -8 -39t-9 -41q270 18 379 29l-8 -148q-213 -4 -393 -14q-47 -262 -100 -451q214 1 620 11v-164q-29 0 -388 5t-427 5 q63 219 117 582q-70 -6 -213 -15z" />
<glyph unicode="&#xa5;" d="M125 1339l151 105q262 -442 445 -721h4q403 639 451 721l147 -94q-33 -43 -236.5 -343t-291.5 -421q229 0 340 4l4 -135q-102 4 -346 4v-189q0 -164 10 -270h-191q10 256 11 311v146q-223 2 -340 -2l-4 135q111 -4 339 -2q-47 72 -158.5 244t-198.5 304t-136 203z" />
<glyph unicode="&#xa8;" horiz-adv-x="1740" d="M514 1698l131 129l131 -129l-131 -131zM965 1698l131 129l131 -129l-131 -131z" />
<glyph unicode="&#xa9;" horiz-adv-x="1744" d="M123 707q0 322 219 540.5t540.5 218.5t530.5 -208.5t209 -530t-219 -541t-541 -219.5q-315 0 -527 212t-212 528zM272 719q0 -262 174 -451.5t418 -189.5q266 0 437.5 184t171.5 457q0 262 -172.5 449.5t-415.5 187.5q-266 0 -439.5 -183.5t-173.5 -453.5zM530 672 q0 145 131.5 276t385.5 176l14 -131q-164 -12 -274.5 -103t-110.5 -202q0 -74 72.5 -139.5t228.5 -65.5q49 1 119 17l10 -127q-51 -10 -139 -11q-115 0 -201 30t-129 68t-69.5 87t-32 77.5t-5.5 47.5z" />
<glyph unicode="&#xab;" horiz-adv-x="1003" d="M88 686q70 88 291 358l102 -94q-37 -33 -115.5 -120t-111.5 -134q172 -197 252 -268l-105 -100q-14 16 -313 358zM426 686q29 35 170 203t178 217l103 -102q-14 -16 -85 -90t-122.5 -131.5t-69.5 -86.5q160 -178 272 -286l-98 -111q-31 37 -182.5 204t-165.5 183z" />
<glyph unicode="&#xad;" horiz-adv-x="716" d="M49 778q90 -2 339 -4t274 0l6 -129q-23 4 -281 -5t-328 -15z" />
<glyph unicode="&#xae;" horiz-adv-x="1744" d="M123 707q0 322 219 540.5t540.5 218.5t530.5 -208.5t209 -530t-219 -541t-541 -219.5q-315 0 -527 212t-212 528zM272 719q0 -262 174 -451.5t418 -189.5q266 0 437.5 184t171.5 457q0 262 -172.5 449.5t-415.5 187.5q-266 0 -439.5 -183.5t-173.5 -453.5zM623 1100 q215 0 313 -17q84 -12 136 -52t52 -103q0 -119 -143 -207q16 -23 112.5 -133.5t125.5 -141.5l-113 -84q-2 4 -128 170t-144 191q154 80 153 172q0 112 -233 106v-307q0 -264 6 -313l-135 2q2 12 2 371v84q0 221 -4 262z" />
<glyph unicode="&#xb4;" horiz-adv-x="1740" d="M780 1612l281 241l98 -143l-325 -172z" />
<glyph unicode="&#xb8;" horiz-adv-x="1740" d="M688 -389q78 4 137.5 35.5t61.5 85.5q0 39 -40 76.5t-93 56.5l90 135h125l-78 -109q59 -16 105 -59t46 -94q0 -76 -100 -138.5t-233 -76.5z" />
<glyph unicode="&#xbb;" horiz-adv-x="1003" d="M127 401q14 16 85 90t122 131.5t69 86.5q-160 178 -272 286l98 111q31 -37 182.5 -204t166.5 -183q-29 -35 -170.5 -203t-178.5 -217zM498 977l104 100q14 -16 313 -358q-69 -89 -290 -359l-103 95q37 33 116 120t112 134q-172 197 -252 268z" />
<glyph unicode="&#xbf;" horiz-adv-x="880" d="M109 424q0 86 37.5 166t92 138t128 110.5t128 82t109.5 54.5l60 -131q-129 -43 -243 -142.5t-114 -232.5q0 -84 47 -150.5t125 -106.5t161 -62.5t173 -32.5l-47 -158q-272 51 -464.5 174t-192.5 291zM457 1233v201h205v-201h-205z" />
<glyph unicode="&#xc0;" horiz-adv-x="1638" d="M41 68q59 102 394 751t358 686h4q88 -141 410.5 -730t394.5 -697l-175 -115q-274 522 -280 531l-711 -29q-14 -23 -113.5 -249t-113.5 -255zM506 600l579 25q-20 41 -150 286.5t-144 268.5q-18 -27 -149.5 -300.5t-135.5 -279.5zM573 1733l97 145l278 -242l-49 -71z" />
<glyph unicode="&#xc1;" horiz-adv-x="1638" d="M41 68q59 102 394 751t358 686h4q88 -141 410.5 -730t394.5 -697l-175 -115q-274 522 -280 531l-711 -29q-14 -23 -113.5 -249t-113.5 -255zM506 600l579 25q-20 41 -150 286.5t-144 268.5q-18 -27 -149.5 -300.5t-135.5 -279.5zM606 1636l281 242l98 -143l-326 -172z " />
<glyph unicode="&#xc2;" horiz-adv-x="1638" d="M41 68q59 102 394 751t358 686h4q88 -141 410.5 -730t394.5 -697l-175 -115q-274 522 -280 531l-711 -29q-14 -23 -113.5 -249t-113.5 -255zM494 1645l305 204l286 -204l-84 -99l-208 172l-226 -172zM506 600l579 25q-20 41 -150 286.5t-144 268.5q-18 -27 -149.5 -300.5 t-135.5 -279.5z" />
<glyph unicode="&#xc4;" horiz-adv-x="1638" d="M41 68q59 102 394 751t358 686h4q88 -141 410.5 -730t394.5 -697l-175 -115q-274 522 -280 531l-711 -29q-14 -23 -113.5 -249t-113.5 -255zM442 1698l131 129l132 -129l-132 -131zM506 600l579 25q-20 41 -150 286.5t-144 268.5q-18 -27 -149.5 -300.5t-135.5 -279.5z M893 1698l131 129l131 -129l-131 -131z" />
<glyph unicode="&#xc6;" horiz-adv-x="1914" d="M-51 86q66 74 508 680t489 668q41 0 370 16t374 23l8 -162q-37 0 -276.5 -5.5t-252.5 -5.5v-583q43 0 219.5 8t241.5 16l6 -161q-23 0 -234.5 3t-232.5 3v-436q469 0 553 6l9 -176q-41 0 -388.5 10t-363.5 10q10 236 10 410v161l-495 -10q-37 -49 -201 -299t-189 -295z M582 690l407 12v560h-10q-139 -210 -397 -572z" />
<glyph unicode="&#xc7;" horiz-adv-x="1351" d="M123 573q0 131 61.5 264.5t181 258.5t324.5 224t465 146l31 -172q-233 -27 -428 -122t-311.5 -243.5t-116.5 -320.5q0 -207 171 -346t515 -139q114 0 237 29l21 -164q-102 -20 -279 -21q-135 0 -231 21l-68 -97q59 -16 105.5 -59t46.5 -94q0 -76 -100.5 -138.5 t-233.5 -76.5l-20 88q78 4 137 35.5t61 85.5q0 39 -40 76.5t-93 56.5l96 143q-147 39 -257.5 112t-167 155.5t-82 157.5t-25.5 140z" />
<glyph unicode="&#xc8;" horiz-adv-x="1175" d="M301 0q6 109 6 594v274q0 449 -6 566q39 0 320.5 16t328.5 23l8 -162q-37 0 -245.5 -5.5t-220.5 -5.5v-520q215 0 399 23l6 -162q-23 0 -204 4t-201 4v-499q407 0 491 6l8 -176q-16 0 -341.5 10t-348.5 10zM383 1729l96 145l279 -242l-49 -71z" />
<glyph unicode="&#xc9;" horiz-adv-x="1175" d="M301 0q6 109 6 594v274q0 449 -6 566q39 0 320.5 16t328.5 23l8 -162q-37 0 -245.5 -5.5t-220.5 -5.5v-520q215 0 399 23l6 -162q-23 0 -204 4t-201 4v-499q407 0 491 6l8 -176q-16 0 -341.5 10t-348.5 10zM498 1632l280 242l99 -143l-326 -172z" />
<glyph unicode="&#xca;" horiz-adv-x="1175" d="M301 0q6 109 6 594v274q0 449 -6 566q39 0 320.5 16t328.5 23l8 -162q-37 0 -245.5 -5.5t-220.5 -5.5v-520q215 0 399 23l6 -162q-23 0 -204 4t-201 4v-499q407 0 491 6l8 -176q-16 0 -341.5 10t-348.5 10zM334 1645l305 204l287 -204l-84 -99l-209 172l-225 -172z" />
<glyph unicode="&#xcb;" horiz-adv-x="1175" d="M272 1718l131 129l132 -129l-132 -131zM301 0q6 109 6 594v274q0 449 -6 566q39 0 320.5 16t328.5 23l8 -162q-37 0 -245.5 -5.5t-220.5 -5.5v-520q215 0 399 23l6 -162q-23 0 -204 4t-201 4v-499q407 0 491 6l8 -176q-16 0 -341.5 10t-348.5 10zM723 1718l131 129 l131 -129l-131 -131z" />
<glyph unicode="&#xcd;" horiz-adv-x="798" d="M289 1612l280 241l99 -143l-326 -172zM297 1434h205q-10 -92 -10 -594v-222q0 -430 8 -618h-199q6 135 6 623v221q0 467 -10 590z" />
<glyph unicode="&#xce;" horiz-adv-x="798" d="M104 1645l306 204l286 -204l-84 -99l-209 172l-225 -172zM297 1434h205q-10 -92 -10 -594v-222q0 -430 8 -618h-199q6 135 6 623v221q0 467 -10 590z" />
<glyph unicode="&#xcf;" horiz-adv-x="798" d="M43 1698l131 129l131 -129l-131 -131zM297 1434h205q-10 -92 -10 -594v-222q0 -430 8 -618h-199q6 135 6 623v221q0 467 -10 590zM494 1698l131 129l131 -129l-131 -131z" />
<glyph unicode="&#xd1;" horiz-adv-x="1873" d="M240 0q8 121 75 1516h4q39 -45 547 -573.5t568 -588.5q0 47 6 545t8 545l190 -10q-10 -139 -29.5 -639t-25.5 -838h-4q-88 88 -596 612.5t-532 556.5h-5q0 -18 -8 -559.5t-6 -580.5zM659 1599q96 160 189 160q63 0 162 -49q61 -33 108 -33q61 2 119 88l84 -67 q-100 -152 -188 -152q-51 -2 -150 47q-70 35 -121 35q-60 0 -119 -88z" />
<glyph unicode="&#xd3;" horiz-adv-x="1740" d="M123 643q0 348 226 585.5t589 237.5q299 0 489.5 -187t190.5 -511q0 -100 -25.5 -205.5t-87 -214t-150.5 -191.5t-226.5 -136.5t-305.5 -53.5q-322 0 -511 196.5t-189 479.5zM319 674q0 -236 143.5 -395.5t379.5 -159.5q242 0 409.5 174t167.5 465q0 262 -148.5 409.5 t-361.5 147.5q-268 0 -429 -184.5t-161 -456.5zM780 1612l281 241l98 -143l-325 -172z" />
<glyph unicode="&#xd4;" horiz-adv-x="1740" d="M123 643q0 348 226 585.5t589 237.5q299 0 489.5 -187t190.5 -511q0 -100 -25.5 -205.5t-87 -214t-150.5 -191.5t-226.5 -136.5t-305.5 -53.5q-322 0 -511 196.5t-189 479.5zM319 674q0 -236 143.5 -395.5t379.5 -159.5q242 0 409.5 174t167.5 465q0 262 -148.5 409.5 t-361.5 147.5q-268 0 -429 -184.5t-161 -456.5zM575 1645l306 204l286 -204l-84 -99l-209 172l-225 -172z" />
<glyph unicode="&#xd6;" horiz-adv-x="1740" d="M123 643q0 348 226 585.5t589 237.5q299 0 489.5 -187t190.5 -511q0 -100 -25.5 -205.5t-87 -214t-150.5 -191.5t-226.5 -136.5t-305.5 -53.5q-322 0 -511 196.5t-189 479.5zM319 674q0 -236 143.5 -395.5t379.5 -159.5q242 0 409.5 174t167.5 465q0 262 -148.5 409.5 t-361.5 147.5q-268 0 -429 -184.5t-161 -456.5zM514 1698l131 129l131 -129l-131 -131zM965 1698l131 129l131 -129l-131 -131z" />
<glyph unicode="&#xd9;" horiz-adv-x="1705" d="M225 1022v111q0 53 1 162.5t1 127.5h195q-10 -133 -10 -336v-139q0 -260 18.5 -391t75.5 -233q115 -199 354 -199q233 0 357 194q47 72 69.5 194t26.5 226.5t4 304.5v72q0 111 -12 338h194q0 -8 1 -127t1 -215v-94q0 -328 -33.5 -514.5t-142.5 -319.5 q-178 -217 -491 -217q-324 0 -478 244q-76 119 -103.5 283.5t-27.5 527.5zM608 1708l97 145l278 -241l-49 -72z" />
<glyph unicode="&#xda;" horiz-adv-x="1705" d="M225 1022v111q0 53 1 162.5t1 127.5h195q-10 -133 -10 -336v-139q0 -260 18.5 -391t75.5 -233q115 -199 354 -199q233 0 357 194q47 72 69.5 194t26.5 226.5t4 304.5v72q0 111 -12 338h194q0 -8 1 -127t1 -215v-94q0 -328 -33.5 -514.5t-142.5 -319.5 q-178 -217 -491 -217q-324 0 -478 244q-76 119 -103.5 283.5t-27.5 527.5zM764 1612l280 241l99 -143l-326 -172z" />
<glyph unicode="&#xdb;" horiz-adv-x="1705" d="M225 1022v111q0 53 1 162.5t1 127.5h195q-10 -133 -10 -336v-139q0 -260 18.5 -391t75.5 -233q115 -199 354 -199q233 0 357 194q47 72 69.5 194t26.5 226.5t4 304.5v72q0 111 -12 338h194q0 -8 1 -127t1 -215v-94q0 -328 -33.5 -514.5t-142.5 -319.5 q-178 -217 -491 -217q-324 0 -478 244q-76 119 -103.5 283.5t-27.5 527.5zM590 1645l305 204l287 -204l-84 -99l-209 172l-225 -172z" />
<glyph unicode="&#xdc;" horiz-adv-x="1705" d="M225 1022v111q0 53 1 162.5t1 127.5h195q-10 -133 -10 -336v-139q0 -260 18.5 -391t75.5 -233q115 -199 354 -199q233 0 357 194q47 72 69.5 194t26.5 226.5t4 304.5v72q0 111 -12 338h194q0 -8 1 -127t1 -215v-94q0 -328 -33.5 -514.5t-142.5 -319.5 q-178 -217 -491 -217q-324 0 -478 244q-76 119 -103.5 283.5t-27.5 527.5zM518 1698l131 129l131 -129l-131 -131zM969 1698l131 129l131 -129l-131 -131z" />
<glyph unicode="&#xdf;" horiz-adv-x="1966" d="M168 840q0 139 169 256.5t380 154.5l39 -143q-55 -8 -114.5 -24.5t-128.5 -44t-113 -72.5t-44 -99q0 -27 13.5 -50t40 -43.5t49 -34t59.5 -32t51 -26.5q154 -84 193 -121q72 -66 72 -158q0 -139 -153 -261t-419 -175l-47 144q428 84 428 251q0 63 -44 104.5t-155 94.5 q-139 68 -207.5 129.5t-68.5 149.5zM1149 840q0 139 169 256.5t380 154.5l39 -143q-55 -8 -114.5 -24.5t-128.5 -44t-113 -72.5t-44 -99q0 -27 13.5 -50t40 -43.5t49 -34t59.5 -32t51 -26.5q154 -84 193 -121q72 -66 72 -158q0 -139 -153 -261t-419 -175l-47 144 q428 84 428 251q0 63 -44 104.5t-155 94.5q-139 68 -207.5 129.5t-68.5 149.5z" />
<glyph unicode="&#xe0;" horiz-adv-x="1454" d="M29 53q47 84 349 638t322 589h5q78 -121 368.5 -621.5t351.5 -592.5l-165 -101q-23 43 -124.5 227.5t-119.5 213.5l-633 -25q-60 -133 -197 -418zM453 510l499 20q-20 39 -130.5 241t-123.5 220q-16 -25 -128.5 -250t-116.5 -231zM485 1544l90 137l265 -229l-45 -68z" />
<glyph unicode="&#xe1;" horiz-adv-x="1454" d="M29 53q47 84 349 638t322 589h5q78 -121 368.5 -621.5t351.5 -592.5l-165 -101q-23 43 -124.5 227.5t-119.5 213.5l-633 -25q-60 -133 -197 -418zM453 510l499 20q-20 39 -130.5 241t-123.5 220q-16 -25 -128.5 -250t-116.5 -231zM575 1452l267 229l92 -135l-309 -164z " />
<glyph unicode="&#xe2;" horiz-adv-x="1454" d="M29 53q47 84 349 638t322 589h5q78 -121 368.5 -621.5t351.5 -592.5l-165 -101q-23 43 -124.5 227.5t-119.5 213.5l-633 -25q-60 -133 -197 -418zM430 1483l291 194l272 -194l-80 -92l-198 163l-215 -163zM453 510l499 20q-20 39 -130.5 241t-123.5 220 q-16 -25 -128.5 -250t-116.5 -231z" />
<glyph unicode="&#xe4;" horiz-adv-x="1454" d="M29 53q47 84 349 638t322 589h5q78 -121 368.5 -621.5t351.5 -592.5l-165 -101q-23 43 -124.5 227.5t-119.5 213.5l-633 -25q-60 -133 -197 -418zM377 1534l123 123l125 -123l-125 -125zM453 510l499 20q-20 39 -130.5 241t-123.5 220q-16 -25 -128.5 -250t-116.5 -231z M805 1534l125 123l123 -123l-123 -125z" />
<glyph unicode="&#xe6;" horiz-adv-x="1701" d="M-41 70q51 59 429 564t441 585q35 0 336 14t342 18l6 -145q-35 0 -250.5 -4t-222.5 -4v-484q231 0 412 21l6 -146q-23 0 -213 2.5t-205 2.5v-365q406 0 496 6l8 -153q-37 0 -353.5 9t-330.5 9q10 205 10 348v131l-430 -10q-238 -350 -336 -504zM528 592l342 12v461h-8 q-129 -178 -334 -473z" />
<glyph unicode="&#xe7;" horiz-adv-x="1202" d="M115 487q0 244 234.5 463t680.5 299l29 -155q-315 -39 -534.5 -198t-219.5 -380q0 -170 153.5 -283.5t465.5 -113.5q111 0 196 20l19 -153q-82 -14 -234 -15q-67 1 -178 9l-70 -103q57 -16 101.5 -57t44.5 -88q0 -74 -95.5 -133.5t-222.5 -71.5l-20 84q76 4 133 33.5 t57 81.5q0 37 -38.5 72.5t-88.5 54.5l99 145q-256 53 -384 197.5t-128 291.5z" />
<glyph unicode="&#xe8;" horiz-adv-x="1081" d="M264 0q6 92 6 506v231q0 383 -6 482q131 0 623 32l8 -147q-47 0 -241.5 -4t-204.5 -4v-426q182 0 385 18l6 -149q-33 0 -205 4q-49 0 -116.5 1t-69.5 1v-414q365 0 469 6l6 -155q-35 0 -340 9t-320 9zM350 1544l90 137l265 -229l-46 -68z" />
<glyph unicode="&#xe9;" horiz-adv-x="1081" d="M264 0q6 92 6 506v231q0 383 -6 482q131 0 623 32l8 -147q-47 0 -241.5 -4t-204.5 -4v-426q182 0 385 18l6 -149q-33 0 -205 4q-49 0 -116.5 1t-69.5 1v-414q365 0 469 6l6 -155q-35 0 -340 9t-320 9zM430 1452l266 229l92 -135l-309 -164z" />
<glyph unicode="&#xea;" horiz-adv-x="1081" d="M264 0q6 92 6 506v231q0 383 -6 482q131 0 623 32l8 -147q-47 0 -241.5 -4t-204.5 -4v-426q182 0 385 18l6 -149q-33 0 -205 4q-49 0 -116.5 1t-69.5 1v-414q365 0 469 6l6 -155q-35 0 -340 9t-320 9zM285 1483l290 194l273 -194l-80 -92l-199 163l-215 -163z" />
<glyph unicode="&#xeb;" horiz-adv-x="1081" d="M211 1534l123 123l125 -123l-125 -125zM264 0q6 92 6 506v231q0 383 -6 482q131 0 623 32l8 -147q-47 0 -241.5 -4t-204.5 -4v-426q182 0 385 18l6 -149q-33 0 -205 4q-49 0 -116.5 1t-69.5 1v-414q365 0 469 6l6 -155q-35 0 -340 9t-320 9zM639 1534l125 123l123 -123 l-123 -125z" />
<glyph unicode="&#xed;" horiz-adv-x="720" d="M229 1452l267 229l92 -135l-309 -164zM260 1219h199q-10 -76 -10 -504v-189q0 -362 8 -526h-193q6 115 6 528v189q0 399 -10 502z" />
<glyph unicode="&#xee;" horiz-adv-x="720" d="M84 1483l291 194l272 -194l-80 -92l-198 163l-215 -163zM260 1219h199q-10 -76 -10 -504v-189q0 -362 8 -526h-193q6 115 6 528v189q0 399 -10 502z" />
<glyph unicode="&#xef;" horiz-adv-x="720" d="M10 1534l123 123l125 -123l-125 -125zM260 1219h199q-10 -76 -10 -504v-189q0 -362 8 -526h-193q6 115 6 528v189q0 399 -10 502zM438 1534l125 123l123 -123l-123 -125z" />
<glyph unicode="&#xf1;" horiz-adv-x="1644" d="M207 0q27 340 69 1288h11q37 -41 477 -484.5t487 -488.5q0 739 6 912l183 -8q-8 -104 -26.5 -533.5t-24.5 -722.5h-9q-35 31 -492.5 486.5t-479.5 480.5h-5q2 -18 -3 -467.5t-5 -474.5zM526 1458q92 152 179 152q61 0 155 -45q57 -33 103 -33q59 2 112 84l80 -64 q-96 -143 -178 -143q-49 -2 -143 43q-66 35 -115 35q-58 0 -113 -84z" />
<glyph unicode="&#xf3;" horiz-adv-x="1585" d="M113 547q0 297 202.5 498.5t532.5 201.5q276 0 450.5 -159.5t174.5 -434.5q0 -86 -24 -176t-79 -181t-137 -163t-209 -117t-281 -45q-293 0 -461.5 167t-168.5 409zM301 573q0 -201 125 -334t334 -133q221 0 371.5 145.5t150.5 393.5q0 223 -133 345t-328 122 q-238 0 -379 -154.5t-141 -384.5zM682 1452l266 229l92 -135l-309 -164z" />
<glyph unicode="&#xf4;" horiz-adv-x="1585" d="M113 547q0 297 202.5 498.5t532.5 201.5q276 0 450.5 -159.5t174.5 -434.5q0 -86 -24 -176t-79 -181t-137 -163t-209 -117t-281 -45q-293 0 -461.5 167t-168.5 409zM301 573q0 -201 125 -334t334 -133q221 0 371.5 145.5t150.5 393.5q0 223 -133 345t-328 122 q-238 0 -379 -154.5t-141 -384.5zM516 1483l291 194l272 -194l-80 -92l-198 163l-215 -163z" />
<glyph unicode="&#xf6;" horiz-adv-x="1585" d="M113 547q0 297 202.5 498.5t532.5 201.5q276 0 450.5 -159.5t174.5 -434.5q0 -86 -24 -176t-79 -181t-137 -163t-209 -117t-281 -45q-293 0 -461.5 167t-168.5 409zM301 573q0 -201 125 -334t334 -133q221 0 371.5 145.5t150.5 393.5q0 223 -133 345t-328 122 q-238 0 -379 -154.5t-141 -384.5zM463 1534l123 123l125 -123l-125 -125zM891 1534l125 123l123 -123l-123 -125z" />
<glyph unicode="&#xf9;" horiz-adv-x="1515" d="M190 868v95q0 45 1.5 138t1.5 109h184q-8 -180 -8 -286v-117q0 -217 17 -329.5t69 -196.5q102 -168 309 -168q203 0 313 166q41 59 61.5 160.5t23.5 190.5t3 259v59q0 53 -2 108.5t-5 108t-3 72.5h186q0 -8 1 -108.5t1 -182.5v-82q0 -272 -32.5 -432t-130.5 -274 q-162 -186 -441 -187q-285 0 -426 209q-68 102 -95.5 243.5t-27.5 444.5zM537 1544l90 137l264 -229l-45 -68z" />
<glyph unicode="&#xfa;" horiz-adv-x="1515" d="M190 868v95q0 45 1.5 138t1.5 109h184q-8 -180 -8 -286v-117q0 -217 17 -329.5t69 -196.5q102 -168 309 -168q203 0 313 166q41 59 61.5 160.5t23.5 190.5t3 259v59q0 53 -2 108.5t-5 108t-3 72.5h186q0 -8 1 -108.5t1 -182.5v-82q0 -272 -32.5 -432t-130.5 -274 q-162 -186 -441 -187q-285 0 -426 209q-68 102 -95.5 243.5t-27.5 444.5zM647 1452l266 229l93 -135l-310 -164z" />
<glyph unicode="&#xfb;" horiz-adv-x="1515" d="M190 868v95q0 45 1.5 138t1.5 109h184q-8 -180 -8 -286v-117q0 -217 17 -329.5t69 -196.5q102 -168 309 -168q203 0 313 166q41 59 61.5 160.5t23.5 190.5t3 259v59q0 53 -2 108.5t-5 108t-3 72.5h186q0 -8 1 -108.5t1 -182.5v-82q0 -272 -32.5 -432t-130.5 -274 q-162 -186 -441 -187q-285 0 -426 209q-68 102 -95.5 243.5t-27.5 444.5zM481 1483l291 194l272 -194l-79 -92l-199 163l-215 -163z" />
<glyph unicode="&#xfc;" horiz-adv-x="1515" d="M190 868v95q0 45 1.5 138t1.5 109h184q-8 -180 -8 -286v-117q0 -217 17 -329.5t69 -196.5q102 -168 309 -168q203 0 313 166q41 59 61.5 160.5t23.5 190.5t3 259v59q0 53 -2 108.5t-5 108t-3 72.5h186q0 -8 1 -108.5t1 -182.5v-82q0 -272 -32.5 -432t-130.5 -274 q-162 -186 -441 -187q-285 0 -426 209q-68 102 -95.5 243.5t-27.5 444.5zM428 1534l123 123l125 -123l-125 -125zM856 1534l125 123l123 -123l-123 -125z" />
<glyph unicode="&#xff;" horiz-adv-x="1198" d="M25 1087l75 150q72 -35 152 -93.5t117 -99.5q195 -209 243 -374h2q72 190 226 352q61 63 162.5 130t173.5 89l53 -149q-180 -57 -330 -218q-211 -225 -211 -503v-156q0 -129 10 -215h-196q0 23 4 131.5t4 116.5v123q0 295 -234 536q-127 131 -251 180zM270 1534l123 123 l125 -123l-125 -125zM698 1534l125 123l123 -123l-123 -125z" />
<glyph unicode="&#x152;" horiz-adv-x="2349" d="M123 647q0 215 92 398.5t280.5 302t436.5 118.5q311 0 483 -209h4l-6 177q41 0 353.5 16t357.5 23l8 -162l-537 -11v-520q285 0 469 23l7 -162l-476 8v-499q477 0 562 6l8 -176q-41 0 -388 10t-364 10q2 59 6 258h-6q-199 -291 -620 -291q-201 0 -357.5 100.5t-234.5 254 t-78 325.5zM319 678q0 -225 138.5 -393t380.5 -168q233 0 411 170t178 430v63q0 248 -152.5 390.5t-367.5 142.5q-152 0 -270.5 -61.5t-185 -159t-99.5 -204t-33 -210.5z" />
<glyph unicode="&#x153;" horiz-adv-x="2127" d="M113 551q0 283 199.5 489.5t535.5 206.5q289 0 434 -186h4l-6 158q41 0 325.5 14t327.5 18l6 -145l-483 -8v-430q260 0 422 18l6 -145l-428 6v-416q416 0 506 6l8 -155q-37 0 -354.5 9t-335.5 9q2 51 6 225h-6q-170 -254 -559 -254q-276 0 -442 173t-166 407zM299 575 q0 -190 124 -329.5t339 -139.5q207 0 367.5 138.5t160.5 326.5v123q0 182 -137 300t-328 118q-137 0 -243.5 -51t-166 -134t-88 -172t-28.5 -180z" />
<glyph unicode="&#x178;" horiz-adv-x="1400" d="M47 1307l84 159q90 -47 182.5 -117.5t137.5 -121.5q215 -248 266 -441h4q78 221 248 414q70 78 185.5 157t207.5 109l61 -159q-217 -66 -391 -267q-109 -123 -172 -280.5t-63 -315.5v-192q0 -150 10 -252h-205q10 236 10 291v153q0 344 -264 635q-141 160 -301 228z M375 1698l131 129l131 -129l-131 -131zM825 1698l131 129l131 -129l-131 -131z" />
<glyph unicode="&#x2c6;" horiz-adv-x="1740" d="M575 1645l306 204l286 -204l-84 -99l-209 172l-225 -172z" />
<glyph unicode="&#x2da;" horiz-adv-x="1740" d="M659 1704q2 80 65.5 130t149.5 50q98 0 152.5 -44t54.5 -109q0 -82 -65.5 -133.5t-157.5 -51.5q-82 0 -140.5 44t-58.5 114zM774 1712q0 -39 27.5 -63.5t66.5 -24.5q41 0 71 24.5t30 71.5q0 37 -27 60.5t-70 23.5q-37 0 -67.5 -24.5t-30.5 -67.5z" />
<glyph unicode="&#x2dc;" horiz-adv-x="1740" d="M541 1620q96 160 188 160q63 0 162 -49q61 -33 108 -33q61 2 119 88l84 -68q-100 -152 -188 -151q-51 -2 -150 47q-70 35 -121 35q-59 0 -118 -88z" />
<glyph unicode="&#x2000;" horiz-adv-x="942" />
<glyph unicode="&#x2001;" horiz-adv-x="1884" />
<glyph unicode="&#x2002;" horiz-adv-x="942" />
<glyph unicode="&#x2003;" horiz-adv-x="1884" />
<glyph unicode="&#x2004;" horiz-adv-x="628" />
<glyph unicode="&#x2005;" horiz-adv-x="471" />
<glyph unicode="&#x2006;" horiz-adv-x="314" />
<glyph unicode="&#x2007;" horiz-adv-x="314" />
<glyph unicode="&#x2008;" horiz-adv-x="235" />
<glyph unicode="&#x2009;" horiz-adv-x="376" />
<glyph unicode="&#x200a;" horiz-adv-x="104" />
<glyph unicode="&#x2010;" horiz-adv-x="716" d="M49 778q90 -2 339 -4t274 0l6 -129q-23 4 -281 -5t-328 -15z" />
<glyph unicode="&#x2011;" horiz-adv-x="716" d="M49 778q90 -2 339 -4t274 0l6 -129q-23 4 -281 -5t-328 -15z" />
<glyph unicode="&#x2012;" horiz-adv-x="716" d="M49 778q90 -2 339 -4t274 0l6 -129q-23 4 -281 -5t-328 -15z" />
<glyph unicode="&#x2013;" horiz-adv-x="1024" d="M0 625v143q225 -4 391 -4h246q23 0 197 2t190 2v-143q-33 4 -387 4h-246q-328 0 -391 -4z" />
<glyph unicode="&#x2014;" horiz-adv-x="2048" d="M0 625v143q225 -4 596 -4h860q111 0 249 1t235.5 2t107.5 1v-143q-33 4 -592 4h-860q-533 0 -596 -4z" />
<glyph unicode="&#x2018;" horiz-adv-x="327" d="M29 1393l164 73l114 -391l-80 -37z" />
<glyph unicode="&#x2019;" horiz-adv-x="327" d="M20 1075l115 391l164 -73l-199 -355z" />
<glyph unicode="&#x201a;" horiz-adv-x="327" d="M20 -154l115 392l164 -74l-199 -354z" />
<glyph unicode="&#x201c;" horiz-adv-x="624" d="M29 1368l145 98l166 -331l-76 -48zM313 1389l156 77l133 -389l-82 -39z" />
<glyph unicode="&#x201d;" horiz-adv-x="624" d="M23 1077l133 389l155 -77l-209 -353zM285 1135l166 331l145 -98l-236 -281z" />
<glyph unicode="&#x201e;" horiz-adv-x="624" d="M23 -152l133 390l155 -78l-209 -353zM285 -94l166 332l145 -99l-236 -280z" />
<glyph unicode="&#x2022;" horiz-adv-x="614" d="M127 768q111 57 211 129q119 -184 149 -219q-123 -76 -245 -166q-84 199 -115 256z" />
<glyph unicode="&#x2026;" horiz-adv-x="2048" d="M236 0v209h210v-209h-210zM918 0v209h210v-209h-210zM1599 0v209h211v-209h-211z" />
<glyph unicode="&#x202f;" horiz-adv-x="376" />
<glyph unicode="&#x2039;" horiz-adv-x="655" d="M78 686q29 35 170 203t178 217l102 -102q-14 -16 -84.5 -90t-122 -131.5t-69.5 -86.5q160 -178 272 -286l-98 -111q-31 37 -182.5 204t-165.5 183z" />
<glyph unicode="&#x203a;" horiz-adv-x="655" d="M127 401q14 16 85 90t122 131.5t69 86.5q-160 178 -272 286l98 111q31 -37 182.5 -204t166.5 -183q-29 -35 -170.5 -203t-178.5 -217z" />
<glyph unicode="&#x205f;" horiz-adv-x="471" />
<glyph unicode="&#x20ac;" d="M184 551q51 0 138 4q-2 8 -3 47q0 55 9 94q-109 -6 -135 -8l4 131q127 0 163 4q78 213 282 375t507 229l35 -153q-217 -43 -393.5 -155.5t-245.5 -282.5q209 6 569 30l-6 -133q-18 1 -598 -22q-10 -61 -10 -88q0 -8 1 -31t1 -33q88 2 290.5 7t299.5 7l-5 -131 q-168 -2 -559 -6q121 -272 574 -272q70 0 131 14l14 -151q-61 -8 -164 -9q-322 0 -499.5 119t-239.5 293q-55 0 -158 -10z" />
<glyph unicode="&#x2122;" horiz-adv-x="1376" d="M0 1317v127q20 -4 141 -8q57 -2 117 -2h78q197 0 254 10v-127q-33 12 -234 12v-110q0 -90 2 -202t5.5 -188.5t3.5 -78.5h-138q4 53 4 471v108q-180 0 -233 -12zM498 760q12 33 113.5 351.5t115.5 367.5h8q12 -25 43 -102t71 -180t62 -157q20 57 87 214t92 206h8 q12 -31 111.5 -334t117.5 -352l-110 -51q-16 43 -73 223t-65 205h-4q-12 -33 -172 -377h-12q-96 217 -152 377h-4q-14 -57 -62.5 -224t-58.5 -204z" />
<glyph unicode="&#xe000;" horiz-adv-x="1228" d="M0 0v1229h1229v-1229h-1229z" />
</font>
</defs>
</svg>
